Movie Help!


  1. jcj77d

    jcj77d Well-Known Member

    Ive tryed soooo many dif video encoders, even the ones mentioned on this forum, & cant get 1 single vid to work on my htc hero. i downloaded a sample vid that works, & ive matched the specs of that vid to the ones i make & nothing.
    starting vid = Aqua Teen Hunger Force, .avi @ 224x176 @ 24fps FOURCC = YV12, 44100 @ 64 mp2.

    trying to convert to - .mp4, @ 480x320 @ 23.976fps @ FOURCC = avc1 & aaclc @ 48000 & 96kbps.

    does anybody have a tryed & true way to get these vids to work, links, anything.

    thanks in advanced

    & BTW im very computer savvy, & used to RIP & convert DivX movies for many many yrs, w/ over 400 DVD quality movies on 700mb CD's

    Advertisement
    :
  2. mark1252003

    mark1252003 Well-Known Member

    Crickey that must have cost a fortune to buy over 400 Dvd's :rolleyes::rolleyes: anyway I use videora Android converter and my vids play fine in the normal video player on my Hero I just use the T-mobile device setting @ H.264 480x320 768kbps Stereo/128kbs. Is the problem caused by you trying to upscale a resolution to a bigger size by looking at the video you got?
  3. jcj77d

    jcj77d Well-Known Member

    thanks, ive tryed that encoder, & actually just not 15min ago tryed the t-mobile g-1 settings w/ another avi, which was 572x312 & it still says unsupported file, & BTW my phone is rooted.
  4. DexKen

    DexKen Active Member

    Try Handbrake and use the iPhone settings, just turn off chapters and change the m4v extension to mp4 when it's done
  5. Slug

    Slug Check six! Moderator

    Take a look at the Best Video Format & Properties thread. Maybe there's some combo in there you haven't tried yet?
  6. jcj77d

    jcj77d Well-Known Member

    thanks, but after more messing around, ive got my mp4's to play on the phone using any of my encoders.
    the prob i thought i had, i didnt. what i was trying to do was stream vids from PC to HERO using gmote, & it works, but only works w/ a sample mp4 vid i downloaded, & i was trying to stream other mp4's w/ gmote, but even if i match the vid specs on another mp4, they wont stream, says unsupported file, even though all vid specs are the same:confused: as the sample vid:confused:
  7. jcj77d

    jcj77d Well-Known Member

    can anybody tell me what encoder program was used to make this mp4, off these specs?

    General
    Complete name : C:\Documents and Settings\Joshua\My Documents\sample4pspandiphone.mp4
    Format : MPEG-4
    Format profile : Base Media
    Codec ID : isom
    File size : 6.84 MiB
    Duration : 1mn 7s
    Overall bit rate : 846 Kbps
    Encoded date : UTC 2008-10-01 19:59:36
    Tagged date : UTC 2008-10-01 19:59:36

    Video
    ID : 1
    Format : AVC
    Format/Info : Advanced Video Codec
    Format profile : Baseline@L3.0
    Format settings, CABAC : No
    Format settings, ReFrames : 2 frames
    Codec ID : avc1
    Codec ID/Info : Advanced Video Coding
    Duration : 1mn 7s
    Bit rate mode : Variable
    Bit rate : 717 Kbps
    Maximum bit rate : 1 432 Kbps
    Width : 480 pixels
    Height : 272 pixels
    Display aspect ratio : 16:9
    Original display aspect ratio : 16:9
    Frame rate mode : Constant
    Frame rate : 23.976 fps
    Resolution : 24 bits
    Colorimetry : 4:2:0
    Scan type : Progressive
    Bits/(Pixel*Frame) : 0.229
    Stream size : 5.79 MiB (85%)
    Writing library : x264 core 64 r971kMod ead8857
    Encoding settings : cabac=0 / ref=2 / deblock=1:0:0 / analyse=0x1:0x131 / me=umh / subme=6 / psy_rd=1.0:0.0 / brdo=0 / mixed_ref=1 / me_range=16 / chroma_me=1 / trellis=0 / 8x8dct=0 / cqm=0 / deadzone=21,11 / chroma_qp_offset=-2 / threads=1 / nr=0 / decimate=1 / mbaff=0 / bframes=0 / keyint=250 / keyint_min=25 / scenecut=40 / rc=crf / crf=21.0000 / qcomp=0.60 / qpmin=10 / qpmax=51 / qpstep=4 / ip_ratio=1.40 / aq=1:1.00 / cabac=0 / ref=2 / deblock=1:0:0 / analyse=0x1:0x131 / me=umh / subme=6 / psy_rd=1.0:0.0 / brdo=0 / mixed_ref=1 / me_range=16 / chroma_me=1 / trellis=0 / 8x8dct=0 / cqm=0 / deadzone=21,11 / chroma_qp_offset=-2 / threads=1 / nr=0 / decimate=1 / mbaff=0 / bframes=0 / keyint=250 / keyint_min=25 / scenecut=40 / rc=crf / crf=21.0000 / qcomp=0.60 / qpmin=10 / qpmax=51 / qpstep=4 / ip_ratio=1.40 / aq=1:1.00
    Encoded date : UTC 2008-10-01 19:59:36
    Tagged date : UTC 2008-10-01 19:59:37

    Audio
    ID : 2
    Format : AAC
    Format/Info : Advanced Audio Codec
    Format version : Version 4
    Format profile : LC
    Format settings, SBR : No
    Codec ID : 40
    Duration : 1mn 7s
    Bit rate mode : Variable
    Bit rate : 127 Kbps
    Maximum bit rate : 146 Kbps
    Channel(s) : 2 channels
    Channel positions : L R
    Sampling rate : 48.0 KHz
    Resolution : 16 bits
    Stream size : 1.03 MiB (15%)
    Encoded date : UTC 2008-10-01 19:59:37
    Tagged date : UTC 2008-10-01 19:59:37
  8. Champmoney

    Champmoney Active Member

    All you need is "Any DVD Converter Professional". All you do is download what ever movie you want in whatever format. Then on the side you can pick what device it will be going on. There is an android device. Just pick that one and it will adjust all the settings. Then press convert. Easy as pie.
  9. jcj77d

    jcj77d Well-Known Member

    i figured it out!!!!!!!!!!
    i know how to make compatible mp4's for my hero, no prob,,,, what i was trying to do was stream the movies from pc to phone using gmote, so all you need to do is open your compatible mp4 (480*320, h.264 & aac) movie in quicktime & then go to file > export > Export: Movie to MPEG-4, then click options, file format = mp4 (not mp4 isma), & for both video & audio formats, select pass through for both & save.

    the new mp4 should be able to stream from pc to phone w/ gmote.

    i can do a step by step Pictorial Guide if needed.
Loading...

Share This Page