1. Download our Official Android App: Forums for Android!

Help with ma4.rem files please !

Discussion in 'Music & Media' started by paul.cannon, Aug 15, 2011.

  1. paul.cannon

    paul.cannon Lurker
    Thread Starter
    Rank:
    None
    Points:
    5
    Posts:
    2
    Joined:
    Aug 15, 2011

    Aug 15, 2011
    2
    0
    5
    My CFO had a Blackberry with a large list of [COLOR=blue !important][FONT=inherit !important][COLOR=blue !important][FONT=inherit !important]ringtones[/FONT][/FONT][/COLOR][/COLOR] that he had downloaded. He now has a droid and wants to be able to use his old ringtones from his [COLOR=blue !important][FONT=inherit !important][COLOR=blue !important][FONT=inherit !important]Blackberry[/FONT][/FONT][/COLOR][/COLOR]. The Blackberry ringtones all end ma4.rem. I have searched the web for a reliable file converter but have yet to find one. Can anyone suggest an [COLOR=blue !important][FONT=inherit !important][COLOR=blue !important][FONT=inherit !important]application[/FONT][/FONT][/COLOR][/COLOR] ( preferably free but does not have to be ) that could help me solve this issue ?

    Thanks in advance.
     

    Advertisement

  2. sitlet

    Rank:
    None
    Points:
    213
    Posts:
    5,867
    Joined:
    Apr 11, 2010

    Apr 11, 2010
    5,867
    633
    213
    open one of the files in MediaInfo on a pc, and post the results here. I'm guessing you can delete the .rem off the end, but I need to see the results to be sure.
     
  3. paul.cannon

    paul.cannon Lurker
    Thread Starter
    Rank:
    None
    Points:
    5
    Posts:
    2
    Joined:
    Aug 15, 2011

    Aug 15, 2011
    2
    0
    5
    General
    Count : 278
    Count of stream of this kind : 1
    Kind of stream : General
    Kind of stream : General
    Stream identifier : 0
    Complete name : C:\Users\pcaNNON\Desktop\Davids RIngtones\GilligansIsland.m4a.rem
    Folder name : C:\Users\pcaNNON\Desktop\Davids RIngtones
    File name : GilligansIsland.m4a
    File extension : rem
    File size : 74028
    File size : 72.3 KiB
    File size : 72 KiB
    File size : 72 KiB
    File size : 72.3 KiB
    File size : 72.29 KiB
    Stream size : 74028
    Stream size : 72.3 KiB (100%)
    Stream size : 72 KiB
    Stream size : 72 KiB
    Stream size : 72.3 KiB
    Stream size : 72.29 KiB
    Stream size : 72.3 KiB (100%)
    Proportion of this stream : 1.00000
    File creation date : UTC 2011-08-15 13:24:47.490
    File creation date (local) : 2011-08-15 09:24:47.490
    File last modification date : UTC 2007-12-23 16:55:46.000
    File last modification date (loc : 2007-12-23 12:55:46.000
     
  4. sitlet

    Rank:
    None
    Points:
    213
    Posts:
    5,867
    Joined:
    Apr 11, 2010

    Apr 11, 2010
    5,867
    633
    213
    Hmm, no that didnt give me any codec data. Try switching MediaInfo to Text View, then copy that.
     

Share This Page

Loading...