1. Are you ready for the Galaxy S20? Here is everything we know so far!

Video/Audio help

Discussion in 'Android Devices' started by Flablitz, Feb 10, 2011.

  1. Flablitz

    Flablitz Android Enthusiast
    Thread Starter

    I have 2 questions that I cant figure out. I am usnig the default media playe called "Video Player"

    1) Can I make the video display in full screen instead of black borders all the way around?

    2) When I play a video file it is hard to hear. I have media volume all the way up is there another way to increase it or have it on speakerphone for louder sound?

    Please help if ya can, other than that Im pleased with the phone.

    Stats of file tried playing.

    Code (Text):
    1. Video
    2. ID                               : 1
    3. Format                           : MPEG-4 Visual
    4. Format profile                   : Simple@L3
    5. Format settings, BVOP            : No
    6. Format settings, QPel            : No
    7. Format settings, GMC             : No warppoints
    8. Format settings, Matrix          : Default (H.263)
    9. Codec ID                         : 20
    10. Duration                         : 1h 15mn
    11. Bit rate mode                    : Constant
    12. Bit rate                         : 512 Kbps
    13. Width                            : 640 pixels
    14. Height                           : 480 pixels
    15. Display aspect ratio             : 4:3
    16. Frame rate mode                  : Constant
    17. Frame rate                       : 23.976 fps
    18. Color space                      : YUV
    19. Chroma subsampling               : 4:2:0
    20. Bit depth                        : 8 bits
    21. Scan type                        : Progressive
    22. Bits/(Pixel*Frame)               : 0.070
    23. Stream size                      : 278 MiB (73%)
    24. Writing library                  : ZJMedia MPEG Encoder
    25. Language                         : English
    26.  
    27. Audio
    28. ID                               : 2
    29. Format                           : AAC
    30. Format/Info                      : Advanced Audio Codec
    31. Format version                   : Version 4
    32. Format profile                   : LC
    33. Format settings, SBR             : No
    34. Codec ID                         : 40
    35. Duration                         : 1h 15mn
    36. Bit rate mode                    : Constant
    37. Bit rate                         : 188 Kbps
    38. Nominal bit rate                 : 128 Kbps
    39. Channel(s)                       : 2 channels
    40. Channel positions                : Front: L R
    41. Sampling rate                    : 48.0 KHz
    42. Stream size                      : 101 MiB (27%)
    43. Language                         : English
     



    1. Download the Forums for Android™ app!


      Download

       
Loading...
Similar Threads - Video Audio help
  1. spman
    Replies:
    8
    Views:
    342
  2. sachertorte
    Replies:
    5
    Views:
    274
  3. RichyK68
    Replies:
    4
    Views:
    372
  4. HenryVIII
    Replies:
    3
    Views:
    738
  5. spman
    Replies:
    1
    Views:
    363
  6. LangePier
    Replies:
    0
    Views:
    1,364
  7. teoburger
    Replies:
    2
    Views:
    2,787
  8. App Update
    Replies:
    2
    Views:
    2,326
  9. sancarloscyclist
    Replies:
    3
    Views:
    1,768
  10. Davidsmith15
    Replies:
    0
    Views:
    1,289

Share This Page

Loading...