1. Download our Official Android App: Forums for Android!

Some .mp4 file work some dont. whats going on?

Discussion in 'Music & Media' started by trevorlay, May 2, 2012.

  1. trevorlay

    trevorlay Lurker
    Thread Starter
    Rank:
    None
    Points:
    25
    Posts:
    4
    Joined:
    Jan 3, 2012

    Jan 3, 2012
    4
    0
    25
    Utah
    I just got my Asus Transformer Prime - TF-201-B-Gray

    I have two file, one works one does not, here is the file info.. The one that works in Johnny English Reborn. Please help me figure this out, im going nuts over here!!! :(

    Code (Text):
    1. [B]WORKING MOVIE:[/B]
    2. General
    3. Complete name : X:\My Documents\My Videos\Johnny English Reborn.mp4
    4. Format : MPEG-4
    5. Format profile : Base Media
    6. Codec ID : isom
    7. File size : 652 MiB
    8. Duration : 1h 41mn
    9. Overall bit rate mode : Variable
    10. Overall bit rate : 899 Kbps
    11. Encoded date : UTC 2012-01-11 08:15:29
    12. Tagged date : UTC 2012-01-11 08:15:29
    13.  
    14. Video
    15. ID : 1
    16. Format : AVC
    17. Format/Info : Advanced Video Codec
    18. Format profile : High@L3.1
    19. Format settings, CABAC : Yes
    20. Format settings, ReFrames : 5 frames
    21. Codec ID : avc1
    22. Codec ID/Info : Advanced Video Coding
    23. Duration : 1h 41mn
    24. Bit rate : 832 Kbps
    25. Maximum bit rate : 4 230 Kbps
    26. Width : 1 280 pixels
    27. Height : 528 pixels
    28. Display aspect ratio : 2.40:1
    29. Frame rate mode : Constant
    30. Frame rate : 23.976 fps
    31. Color space : YUV
    32. Chroma subsampling : 4:2:0
    33. Bit depth : 8 bits
    34. Scan type : Progressive
    35. Bits/(Pixel*Frame) : 0.051
    36. Stream size : 603 MiB (93%)
    37. Writing library : x264 core 116 r2074 2641b9e
    38. Encoding settings : cabac=1 / ref=5 / deblock=1:-2:-1 / analyse=0x3:0x113 / me=umh / subme=8 / psy=1 / psy_rd=1.00:0.00 / mixed_ref=1 / me_range=16 / chroma_me=1 / trellis=1 / 8x8dct=1 / cqm=0 / deadzone=21,11 / fast_pskip=1 / chroma_qp_offset=-2 / threads=12 / sliced_threads=0 / nr=0 / decimate=1 / interlaced=0 / bluray_compat=0 / constrained_intra=0 / bframes=3 / b_pyramid=2 / b_adapt=2 / b_bias=0 / direct=3 / weightb=1 / open_gop=0 / weightp=2 / keyint=250 / keyint_min=23 / scenecut=40 / intra_refresh=0 / rc_lookahead=50 / rc=2pass / mbtree=1 / bitrate=832 / ratetol=1.0 / qcomp=0.60 / qpmin=10 / qpmax=51 / qpstep=4 / cplxblur=20.0 / qblur=0.5 / ip_ratio=1.40 / aq=1:1.00
    39. Encoded date : UTC 2012-01-11 08:15:29
    40. Tagged date : UTC 2012-01-11 08:15:41
    41.  
    42. Audio
    43. ID : 2
    44. Format : AAC
    45. Format/Info : Advanced Audio Codec
    46. Format profile : HE-AAC / LC
    47. Codec ID : 40
    48. Duration : 1h 41mn
    49. Bit rate mode : Variable
    50. Bit rate : 64.0 Kbps
    51. Maximum bit rate : 70.9 Kbps
    52. Channel(s) : 2 channels
    53. Channel positions : Front: L R
    54. Sampling rate : 48.0 KHz / 24.0 KHz
    55. Compression mode : Lossy
    56. Stream size : 46.4 MiB (7%)
    57. Encoded date : UTC 2012-01-11 08:15:38
    58. Tagged date : UTC 2012-01-11 08:15:41
    59.  
    60. [B]NOT WORKING MOVIE[/B]
    61. General
    62. Complete name : X:\My Documents\My Videos\kevin.smith.burn.in.hell.hdtv.x264-sys.mp4
    63. Format : MPEG-4
    64. Format profile : Base Media
    65. Codec ID : isom
    66. File size : 475 MiB
    67. Duration : 1h 28mn
    68. Overall bit rate mode : Variable
    69. Overall bit rate : 747 Kbps
    70. Encoded date : UTC 2012-03-10 23:08:55
    71. Tagged date : UTC 2012-03-10 23:08:55
    72. Writing application : My MP4Box GUI 0.5.6.0  
    73.  
    74. Video
    75. ID : 1
    76. Format : AVC
    77. Format/Info : Advanced Video Codec
    78. Format profile : High@L3.1
    79. Format settings, CABAC : Yes
    80. Format settings, ReFrames : 5 frames
    81. Codec ID : avc1
    82. Codec ID/Info : Advanced Video Coding
    83. Duration : 1h 28mn
    84. Bit rate : 656 Kbps
    85. Maximum bit rate : 3 215 Kbps
    86. Width : 720 pixels
    87. Height : 406 pixels
    88. Display aspect ratio : 16:9
    89. Frame rate mode : Constant
    90. Frame rate : 29.970 fps
    91. Color space : YUV
    92. Chroma subsampling : 4:2:0
    93. Bit depth : 8 bits
    94. Scan type : Progressive
    95. Bits/(Pixel*Frame) : 0.075
    96. Stream size : 417 MiB (88%)
    97. Writing library : x264 core 122 r2183 c522ad1
    98. Encoding settings : cabac=1 / ref=5 / deblock=1:0:0 / analyse=0x3:0x113 / me=umh / subme=8 / psy=1 / psy_rd=1.00:0.00 / mixed_ref=1 / me_range=16 / chroma_me=1 / trellis=1 / 8x8dct=1 / cqm=0 / deadzone=21,11 / fast_pskip=1 / chroma_qp_offset=-2 / threads=12 / sliced_threads=0 / nr=0 / decimate=1 / interlaced=0 / bluray_compat=0 / constrained_intra=0 / bframes=3 / b_pyramid=2 / b_adapt=2 / b_bias=0 / direct=3 / weightb=1 / open_gop=0 / weightp=2 / keyint=250 / keyint_min=25 / scenecut=40 / intra_refresh=0 / rc_lookahead=50 / rc=crf / mbtree=1 / crf=21.0 / qcomp=0.60 / qpmin=0 / qpmax=69 / qpstep=4 / ip_ratio=1.40 / aq=1:1.00
    99. Encoded date : UTC 2012-03-11 21:55:33
    100. Tagged date : UTC 2012-03-10 23:09:39
    101. Matrix coefficients : BT.709-5, BT.1361, IEC 61966-2-4 709, SMPTE RP177
    102.  
    103. Audio
    104. ID : 2
    105. Format : AAC
    106. Format/Info : Advanced Audio Codec
    107. Format profile : LC
    108. Codec ID : 40
    109. Duration : 1h 28mn
    110. Bit rate mode : Variable
    111. Bit rate : 87.1 Kbps
    112. Maximum bit rate : 140 Kbps
    113. Channel(s) : 2 channels
    114. Channel positions : Front: L R
    115. Sampling rate : 48.0 KHz
    116. Compression mode : Lossy
    117. Delay relative to video : -3s 337ms
    118. Stream size : 55.3 MiB (12%)
    119. Encoded date : UTC 2012-03-10 23:09:36
    120. Tagged date : UTC 2012-03-10 23:09:39
     

    Advertisement

  2. mikedt

    mikedt 你好
    Rank:
     #5
    Points:
    3,238
    Posts:
    25,912
    Joined:
    Sep 22, 2010

    Sep 22, 2010
    25,912
    14,945
    3,238
    Teachaaa
    Jinan, China
    What software have you tried, your tablet's default player?

    Try MoboPlayer it's free and on Play. Should play them OK, that's what I use.
     
  3. trevorlay

    trevorlay Lurker
    Thread Starter
    Rank:
    None
    Points:
    25
    Posts:
    4
    Joined:
    Jan 3, 2012

    Jan 3, 2012
    4
    0
    25
    Utah
    found out it was a bad MicroSD card.. :(
     

Share This Page

Loading...